Quick Browse
Movies
TV shows
Music
Games
Applications
Anime
Other

Latest Articles

Friends
Torrents.me
Torrent Download
Movie4u
1337x
RARBG
Full Movies
Torrent Downloads

Verified torrent The Fox with a Velvet Tail - In the Eye of the Hurricane - La volpe dalla coda di velluto (1971).720p.H264.italian.english.Ac3.sub.ita.MIRCrew


    Seeders : 13      Leechers : 1


Note :

Please Update (Trackers Info) Before Downloading Torrents to See Updated Seeders And Leechers for Batter Download Speed.

Trackers List

Tracker NameLast CheckStatusSeedersLeechers
udp://tracker.pirateparty.gr:6969/announce14 days agosuccess131
udp://tracker.coppersurfer.tk:6969/announce14 days agosuccess131
udp://tracker.opentrackr.org:1337/announce14 days agosuccess21
udp://public.popcorn-tracker.org:6969/announce14 days agosuccess21
udp://tracker.vanitycore.co:6969/announce14 days agosuccess21
udp://tracker.tiny-vps.com:6969/announce14 days agosuccess21
udp://9.rarbg.to:2710/announce14 days agosuccess21
udp://eddie4.nl:6969/announce14 days agosuccess21
udp://shadowshq.yi.org:6969/announce14 days agosuccess21
udp://tracker.leechers-paradise.org:6969/announce14 days agosuccess21
udp://9.rarbg.me:2710/announce14 days agosuccess21
udp://tracker.mgtracker.org:2710/announce14 days agosuccess10
udp://mgtracker.org:6969/announce14 days agosuccess10
http://tracker.trackerfix.com/announce14 days agosuccess00
udp://tracker.cypherpunks.ru:6969/announce14 days agosuccess00
udp://inferno.demonoid.pw:3418/announce14 days agosuccess00
udp://asnet.pw:2710/announce14 days agosuccess00
udp://tracker.xku.tv:6969/announce14 days agosuccess00
http://tracker.opentrackr.org/announce14 days agosuccess00
udp://tracker.sktorrent.net:6969/announce14 days agosuccess00
udp://tracker.blackunicorn.xyz:6969/announce14 days agosuccess00
udp://glotorrents.pw:6969/announce14 days agosuccess00
udp://tracker.trackerfix.com:80/announce14 days agosuccess00
http://tracker2.wasabii.com.tw:6969/announce14 days agosuccess00
http://bigfoot1942.sektori.org:6969/announce14 days agosuccess00
udp://explodie.org:6969/announce14 days agosuccess00
udp://castradio.net:6969/announce14 days agosuccess00




Torrent File Content (3 files)


La volpe dalla coda di velluto - The Fox with a Velvet Tail (1971)h264.ita.eng - MIRCrew
     La volpe dalla coda di velluto - The Fox with a Velvet Tail (1971)h264.ita.eng - MIRCrew.mkv -
1.61 GB

     MIRCrew-ilCorSaRoNeRo.txt -
53 bytes

     MIRCrew.jpg -
42.42 KB



Description



The Fox with a Velvet Tail - In the Eye of the Hurricane - La volpe dalla coda di velluto
(1971).720p.H264.italian.english.Ac3.sub.ita.MIRCrew

[color=red]
http://worldimages.gallery/images/2017/12/05/Vg6zm.png

NO FOUND ONLY ORIGINAL RELEASE

http://worldimages.gallery/images/2017/09/02/4716a3153385da57f9bf0ad75d1cdd7a.gif



My release is always in double track audio italian and Original audio
for select it use VLC or dvd player home
not use wmp

La volpe dalla coda di velluto - The Fox with a Velvet Tail - In the Eye of the Hurricane (1971)

Quality MIRCrew on HD 720p da 1,6 gb

http://image.ibb.co/kmBdwT/w.png


[URL=http://www.imdb.com/title/tt0067520/]
http://www.userlogos.org/files/logos/Sucka/imdb_new.png
[/URL]

http://worldimages.gallery/images/2018/01/28/kVBug.png


Titolo originale El ojo del huracàn
Paese di produzione Italia, Spagna
Anno 1972
Durata 96 min
Genere thriller
Regia Josè Maria Forquè
Soggetto Rafael Azcona, Francesco Capitelli, Mario Di Nardo, Josè Maria Forquè
Sceneggiatura Rafael Azcona, Francesco Capitelli, Mario Di Nardo, Josè Maria Forquè
Casa di produzione Orfeo Producciones

http://worldimages.gallery/images/2018/01/28/kVlLX.png


Jean Sorel: Paul
Analia Gadè: Ruth
Tony Kendall: Michel
Maurizio Bonuglia: Roland
Rosanna Yanni: Danielle
Julio Peña: il commissario di polizia
Mario Morales: il negoziante
Felix Josè Montoya: William, il maggiordomo
Pilar Gómez Ferrer: la cuoca

http://worldimages.gallery/images/2018/01/28/kVnEn.png


Ruth è una ricca ereditiera spagnola, sposata da tempo con Michel. La donna risente della monotonia della vita quotidiana e vorrebbe il divorzio, anche perché ha conosciuto Paul del quale si è innamorata perdutamente. Michel, ancora innamorato della moglie, sembra inizialmente acconsentire.

http://worldimages.gallery/images/2018/01/28/kVI50.png


Ruth and Michel separate after Ruth finds another man, Paul. Ruth and Paul go to her sunny, idyllic beach side villa to spend summer. They are having a great time together, and then things ...

http://worldimages.gallery/images/2018/01/28/kVQto.png


http://image.ibb.co/bwPbi8/vlcsnap_00005.png

http://image.ibb.co/nLBNO8/vlcsnap_00006.png

http://image.ibb.co/hBwp38/vlcsnap_00007.png

http://image.ibb.co/g72U38/vlcsnap_00008.png



http://worldimages.gallery/images/2018/01/28/kVeA6.png


[spoiler]
General
Unique ID : 220267204128869721358581991822001825747 (0xA5B5EBA0A2353E23A6678CEF2011E7D3)
Complete name : La volpe dalla coda di velluto - The Fox with a Velvet Tail (1971)h264.ita.eng - MIRCrew\La volpe dalla coda di velluto - The Fox with a Velvet Tail (1971)h264.ita.eng - MIRCrew.mkv
Format : Matroska
Format version : Version 2
File size : 1.61 GiB
Duration : 1h 40mn
Overall bit rate : 2 307 Kbps
Encoded date : UTC 2017-09-16T17:54:41Z
Writing application : mkvmerge v5.4.0 ('Piper') built on Mar 10 2012 13:34:39
Writing library : Lavf57.7.2

Video
ID : 1
Format : AVC
Format/Info : Advanced Video Codec
Format profile : [email protected]
Format settings, CABAC : Yes
Format settings, ReFrames : 9 frames
Codec ID : V_MPEG4/ISO/AVC
Duration : 1h 40mn
Bit rate : 1 877 Kbps
Width : 1 280 pixels
Height : 720 pixels
Display aspect ratio : 16:9
Frame rate : 23.976 fps
Color space : YUV
Chroma subsampling : 4:2:0
Bit depth : 8 bits
Scan type : Progressive
Bits/(Pixel*Frame) : 0.085
Stream size : 1.31 GiB (81%)
Writing library : x264 core 148 r2708 86b7198
Encoding settings : cabac=1 / ref=9 / deblock=1:-1:-1 / analyse=0x1:0x131 / me=tesa / subme=11 / psy=1 / psy_rd=1.00:0.15 / mixed_ref=1 / me_range=24 / chroma_me=1 / trellis=2 / 8x8dct=0 / cqm=0 / deadzone=21,11 / fast_pskip=0 / chroma_qp_offset=-3 / threads=22 / lookahead_threads=5 / sliced_threads=0 / nr=0 / decimate=1 / interlaced=0 / bluray_compat=0 / constrained_intra=0 / bframes=16 / b_pyramid=2 / b_adapt=2 / b_bias=0 / direct=3 / weightb=1 / open_gop=0 / weightp=2 / keyint=240 / keyint_min=24 / scenecut=40 / intra_refresh=0 / rc_lookahead=60 / rc=crf / mbtree=1 / crf=23.0 / qcomp=0.60 / qpmin=0 / qpmax=69 / qpstep=4 / vbv_maxrate=20000 / vbv_bufsize=25000 / crf_max=0.0 / nal_hrd=none / filler=0 / ip_ratio=1.40 / aq=1:1.00
Default : Yes
Forced : No
Color primaries : BT.709-5, BT.1361, IEC 61966-2-4, SMPTE RP177
Transfer characteristics : BT.709-5, BT.1361
Matrix coefficients : BT.709-5, BT.1361, IEC 61966-2-4 709, SMPTE RP177

Audio #1
ID : 2
Format : AC-3
Format/Info : Audio Coding 3
Mode extension : CM (complete main)
Codec ID : A_AC3
Duration : 1h 40mn
Bit rate mode : Constant
Bit rate : 192 Kbps
Channel(s) : 1 channel
Channel positions : Front: C
Sampling rate : 48.0 KHz
Bit depth : 16 bits
Compression mode : Lossy
Delay relative to video : -5ms
Stream size : 137 MiB (8%)
Title : Ita Ac3
Language : Italian
Default : No
Forced : No

Audio #2
ID : 3
Format : AC-3
Format/Info : Audio Coding 3
Mode extension : CM (complete main)
Muxing mode : Header stripping
Codec ID : A_AC3
Duration : 1h 40mn
Bit rate mode : Constant
Bit rate : 192 Kbps
Channel(s) : 1 channel
Channel positions : Front: C
Sampling rate : 48.0 KHz
Bit depth : 16 bits
Compression mode : Lossy
Delay relative to video : -5ms
Stream size : 137 MiB (8%)
Title : Eng Ac3
Language : English
Default : No
Forced : No

Text #1
ID : 4
Format : UTF-8
Codec ID : S_TEXT/UTF8
Codec ID/Info : UTF-8 Plain Text
Title : english - rarelust.com
Language : English
Default : Yes
Forced : No

Text #2
ID : 5
Format : PGS
Muxing mode : zlib
Codec ID : S_HDMV/PGS
Codec ID/Info : The same subtitle format used on BDs/HD-DVDs
Language : English
Default : No
Forced : No

Menu
00:00:00.000 : :Chapter 1
00:10:04.312 : :Chapter 2
00:19:46.185 : :Chapter 3
00:28:32.044 : :Chapter 4
00:34:28.149 : :Chapter 5
00:44:01.556 : :Chapter 6
00:53:56.233 : :Chapter 7
01:03:51.786 : :Chapter 8
01:12:07.406 : :Chapter 9
01:21:01.982 : :Chapter 10
01:29:59.936 : :Chapter 11
01:37:26.632 : :Chapter 12


[/spoiler]

[/color]


Related torrents

Torrent NameAddedSizeSeedLeechHealth
1 Year+ - in Movies1.2 GB00
8 months ago - in Movies1.13 GB00
Verified torrent
1 Year+ - in Movies1.66 GB00
Verified torrent
1 Year+ - in Movies1.46 GB131
Verified torrent
1 Year+ - in Movies1.24 GB10

Note :

Feel free to post any comments about this torrent, including links to Subtitle, samples, screenshots, or any other relevant information. Please Dont Download anything from Comments, And Dont Post Links to Streaming Sites like Fmovies, Xmovies8, 123Movies, GoMovies, CMovieshd, Solarmovie, Watchfree, Putlockers, GoStream, m4ufree etc.

Comments (0 Comments)




Please login or create a FREE account to post comments

Latest Searches

| S00E17 | mona public pick ups 1080p | timeless ita | grim dawn 1 0 6 1 | john apostle | wet dee williams | newton 3 after | dedication 6 tracks | s o s terra | Axis of War The First of August |
Sitemap